AVS4You.comSupportRulesAbout Us
    ENG English    FRA Français    DEU Deutsch
ma
Posts: 1
Registered: 23.12.2012
23.12.12 14:24:38
i have no sound on my video once i have remade it...
the videos prior had sound
NEED HELP ASAP
Posts: 2
Registered: 30.09.2012
24.12.12 14:41:16
To: ma
I'm new with AVS4You and there are a lot of issues I find with the video editing program. I've had loss of sound while assembling a video, I just save my work, close the program then reopen it. Also, look at the audio track and make sure that the volume line is about half way up or centered in the waveform, then remake the video. Good Luck and I hope this may help.
Nat
Posts: 2133
Registered: 03.07.2008
25.12.12 11:11:05
To: ma

Dear User,

Specify the format and origin of the input file you use in AVS Video ReMaker.

Please also inform what settings are selected for the output file and what player is used to playback the created video.
If possible, try to use some other players to play the file and inform about the result.

Thank you for cooperation.

Kind regards
Posts: 3
Registered: 29.12.2009
28.12.12 23:46:59
I seem to have the same issue. I'm not doing any encoding or anything. I'm just trying to join two or more files using video remaker. The files have sound before but not after being joined. Here's some information on the file type I'm trying to join. This is a file created on my Panasonic HD tm55k camcorder.

General
ID : 1 (0x1)
Complete name : D:\video camera dump\2012\20121225\20121225_145258.m2ts
Format : BDAV
Format/Info : Blu-ray Video
File size : 167 MiB
Duration : 1mn 27s
Overall bit rate mode : Variable
Overall bit rate : 16.0 Mbps
Maximum Overall bit rate : 18.0 Mbps

Video
ID : 4113 (0x1011)
Menu ID : 1 (0x1)
Format : AVC
Format/Info : Advanced Video Codec
Format profile : High@L4.0
Format settings, CABAC : Yes
Format settings, ReFrames : 4 frames
Format settings, GOP : M=3, N=15
Codec ID : 27
Duration : 1mn 27s
Bit rate mode : Variable
Bit rate : 15.1 Mbps
Maximum bit rate : 16.8 Mbps
Width : 1 920 pixels
Height : 1 080 pixels
Display aspect ratio : 16:9
Frame rate : 29.970 fps
Color space : YUV
Chroma subsampling : 4:2:0
Bit depth : 8 bits
Scan type : Interlaced
Scan order : Top Field First
Bits/(Pixel*Frame) : 0.243
Stream size : 157 MiB (94%)

Audio
ID : 4352 (0x1100)
Menu ID : 1 (0x1)
Format : AC-3
Format/Info : Audio Coding 3
Mode extension : CM (complete main)
Codec ID : 129
Duration : 1mn 27s
Bit rate mode : Constant
Bit rate : 256 Kbps
Channel(s) : 2 channels
Channel positions : Front: L R
Sampling rate : 48.0 KHz
Bit depth : 16 bits
Compression mode : Lossy
Delay relative to video : -67ms
Stream size : 2.67 MiB (2%)

Text
ID : 4608 (0x1200)
Menu ID : 1 (0x1)
Format : PGS
Codec ID : 144
Duration : 1mn 27s
Delay relative to video : -67ms
Posts: 3
Registered: 29.12.2009
28.12.12 23:51:31
To: fitz1989


I would like to add that the converted file containing 2 joined files looks like this. It appears to have audio in it but does not have sound on any media player I try.

General
ID : 0 (0x0)
Complete name : C:\Users\greenuser\Desktop\20121225_145258.m2ts
Format : BDAV
Format/Info : Blu-ray Video
File size : 313 MiB
Duration : 2mn 27s
Overall bit rate mode : Variable
Overall bit rate : 17.8 Mbps

Video
ID : 4113 (0x1011)
Menu ID : 1 (0x1)
Format : AVC
Format/Info : Advanced Video Codec
Format profile : High@L4.0
Format settings, CABAC : Yes
Format settings, ReFrames : 4 frames
Format settings, GOP : M=3, N=15
Codec ID : 27
Duration : 2mn 27s
Bit rate mode : Variable
Bit rate : 15.6 Mbps
Maximum bit rate : 16.8 Mbps
Width : 1 920 pixels
Height : 1 080 pixels
Display aspect ratio : 16:9
Frame rate : 29.970 fps
Color space : YUV
Chroma subsampling : 4:2:0
Bit depth : 8 bits
Scan type : Interlaced
Scan order : Top Field First
Bits/(Pixel*Frame) : 0.251
Stream size : 274 MiB (87%)

Audio
ID : 4352 (0x1100)
Menu ID : 1 (0x1)
Format : PCM
Format settings, Endianness : Big
Format settings, Sign : Signed
Muxing mode : Blu-ray
Codec ID : 128
Duration : 2mn 27s
Bit rate mode : Constant
Bit rate : 1 536 Kbps
Channel(s) : 2 channels
Channel positions : Front: L R
Sampling rate : 48.0 KHz
Bit depth : 16 bits
Stream size : 27.0 MiB (9%)
Nat
Posts: 2133
Registered: 03.07.2008
29.12.12 04:35:38
To: fitz1989

Dear User,

Thank you for the deteiled information and the specifications of the files sent.

Could you specify what PC Players you use to playback the created video file and the versions of them?

Do you have any codec packs installed on your PC, if not try to install one with PCM audio codec.

Try to use AVS Media Player to playback the created file, do you get the audio?

Thank you for cooperation.

Kind regards
Online:
Users:  1  ARTMAN
Guests:  260